<?xml version="1.0" standalone="no"?>
<!DOCTYPE svg PUBLIC "-//W3C//DTD SVG 1.1//EN" "http://www.w3.org/Graphics/SVG/1.1/DTD/svg11.dtd">
<svg xmlns="http://www.w3.org/2000/svg">
<metadata>Copyright (C) 2022 by original authors @ fontello.com</metadata>
<defs>
<font id="arrows-hamburger" horiz-adv-x="1000" >
<font-face font-family="arrows-hamburger" font-weight="400" font-stretch="normal" units-per-em="1000" ascent="850" descent="-150" />
<missing-glyph horiz-adv-x="1000" />
<glyph glyph-name="hamburger_menu" unicode="&#xe800;" d="M0 526l0 70h1000v-70h-1000z m1000-140h-1000v-73h1000v73z m0-210h-1000v-72h1000v72z" horiz-adv-x="1000" />

<glyph glyph-name="mediumarrow-left-circle" unicode="&#xe801;" d="M476 638c134 0 243-109 243-244s-109-243-243-243c-135 0-244 109-244 243 0 135 109 244 244 244z m0-458c118 0 214 96 214 214 0 119-96 215-214 215-119 0-215-96-215-215s96-214 215-214z m-86 200h210v29h-210v-29z m-20 14l100-100 21 20-81 80 81 81-21 20-100-101z" horiz-adv-x="1000" />

<glyph glyph-name="mediumarrow-left-no" unicode="&#xe802;" d="M532 514l-42 42-207-207 207-207 42 42-135 135h359v60h-359l135 135z" horiz-adv-x="1000" />

<glyph glyph-name="mediumarrow-right-circle" unicode="&#xe803;" d="M476 151c-135 0-244 109-244 243 0 135 109 244 244 244s243-109 243-244c0-134-109-243-243-243z m0 458c-119 0-215-96-215-215 0-118 96-214 215-214s214 96 214 214c0 119-96 215-214 215z m85-200h-210v-29h210v29z m21-15l-101 101-20-20 80-81-80-80 20-20 101 100z" horiz-adv-x="1000" />

<glyph glyph-name="mediumarrow-right-no" unicode="&#xe804;" d="M507 184l42-42 207 207-207 207-42-42 135-135h-359v-60h360l-136-135z" horiz-adv-x="1000" />

<glyph glyph-name="mediumchevron-left-circle" unicode="&#xe805;" d="M490 646c134 0 243-109 243-244s-109-243-243-243c-135 0-244 109-244 243 0 135 109 244 244 244z m0-458c118 0 214 96 214 214s-96 215-214 215c-119 0-215-96-215-215s96-214 215-214z m-74 214l100-100 21 20-80 80 80 81-21 20-100-101z" horiz-adv-x="1000" />

<glyph glyph-name="mediumchevron-left-no" unicode="&#xe806;" d="M554 555l-204-205 204-204 42 41-163 163 163 163-42 42z" horiz-adv-x="1000" />

<glyph glyph-name="mediumchevron-right-circle" unicode="&#xe807;" d="M490 159c-135 0-244 109-244 243 0 135 109 244 244 244 134 0 243-109 243-244 0-134-109-243-243-243z m0 458c-119 0-215-96-215-215 0-118 96-214 215-214 118 0 214 96 214 214 0 119-96 215-214 215z m74-215l-101 101-20-20 80-81-80-80 20-20 101 100z" horiz-adv-x="1000" />

<glyph glyph-name="mediumchevron-right-no" unicode="&#xe808;" d="M391 146l205 204-205 205-41-42 163-163-163-163 41-41z" horiz-adv-x="1000" />

<glyph glyph-name="thickarrow-left-circle" unicode="&#xe809;" d="M486 661c140 0 253-114 253-253s-113-253-253-253c-139 0-253 113-253 253s114 253 253 253z m0-458c113 0 205 92 205 205 0 113-92 205-205 205-113 0-205-92-205-205 0-113 92-205 205-205z m-85 181h210v48h-210v-48l0 0z m-34 24l107-108 34 34-73 74 73 73-34 34-107-107z" horiz-adv-x="1000" />

<glyph glyph-name="thickarrow-left-no" unicode="&#xe80a;" d="M542 490l-65 65-205-205 205-205 65 65-94 94h289v92h-289l94 94z" horiz-adv-x="1000" />

<glyph glyph-name="thickarrow-right-circle" unicode="&#xe80b;" d="M486 155c-139 0-253 113-253 253s114 253 253 253c140 0 253-114 253-253s-113-253-253-253z m0 458c-113 0-205-92-205-205 0-113 92-205 205-205 113 0 205 92 205 205 0 113-92 205-205 205z m86-181h-210v-48h210v48z m34-24l-107 107-34-34 73-73-73-74 34-34 107 108z" horiz-adv-x="1000" />

<glyph glyph-name="thickarrow-right-no" unicode="&#xe80c;" d="M467 210l65-65 205 205-205 205-65-65 94-94h-289v-92h289l-94-94z" horiz-adv-x="1000" />

<glyph glyph-name="thickchevron-left-circle" unicode="&#xe80d;" d="M479 620c140 0 254-114 254-253 0-140-114-253-254-253s-253 113-253 253c0 139 114 253 253 253z m0-458c113 0 205 92 205 205 0 113-92 205-205 205s-204-92-204-205c0-113 91-205 204-205z m-87 205l107-108 34 34-73 74 73 73-34 34-107-107z" horiz-adv-x="1000" />

<glyph glyph-name="thickchevron-left-no" unicode="&#xe80e;" d="M538 554l-204-204 204-204 65 65-140 139 140 140-65 64z" horiz-adv-x="1000" />

<glyph glyph-name="thickchevron-right-circle" unicode="&#xe80f;" d="M479 114c-139 0-253 113-253 253 0 139 114 253 253 253s254-114 254-253c0-140-114-253-254-253z m0 458c-113 0-204-92-204-205s91-205 204-205c113 0 205 92 205 205s-92 205-205 205z m88-205l-107 107-35-34 74-73-74-74 35-34 107 108z" horiz-adv-x="1000" />

<glyph glyph-name="thickchevron-right-no" unicode="&#xe810;" d="M398 146l205 204-205 204-64-64 139-140-139-139 64-65z" horiz-adv-x="1000" />

<glyph glyph-name="thinarrow-left-circle" unicode="&#xe811;" d="M470 610c130 0 236-106 236-235s-106-236-236-236c-129 0-235 106-235 236 0 129 106 235 235 235z m0-458c123 0 223 100 223 223s-100 222-223 222c-122 0-222-100-222-222s100-223 222-223z m-85 216h210v13h-210v-13z m-9 7l95-95 9 9-86 86 86 85-9 9-95-94z" horiz-adv-x="1000" />

<glyph glyph-name="thinarrow-left-no" unicode="&#xe812;" d="M520 532l-19 19-201-201 201-201 19 19-168 168h411v28h-411l168 168z" horiz-adv-x="1000" />

<glyph glyph-name="thinarrow-right-circle" unicode="&#xe813;" d="M470 139c-129 0-235 106-235 236 0 129 106 235 235 235 130 0 236-106 236-235 0-130-106-236-236-236z m0 458c-122 0-222-100-222-222s100-223 222-223c123 0 223 100 223 223s-100 222-223 222z m86-216h-210v-13h210v13z m9-6l-95 94-9-9 86-85-86-86 9-9 95 95z" horiz-adv-x="1000" />

<glyph glyph-name="thinarrow-right-no" unicode="&#xe814;" d="M543 168l19-19 201 201-201 201-19-19 168-168h-411v-28h411l-168-168z" horiz-adv-x="1000" />

<glyph glyph-name="thinchevron-left-circle" unicode="&#xe815;" d="M500 642c130 0 235-106 235-236s-105-235-235-235-235 105-235 235c0 130 105 236 235 236z m0-458c123 0 223 100 223 222s-100 223-223 223-223-100-223-223 100-222 223-222z m-63 222l95-95 10 9-86 86 86 86-10 9-95-95z" horiz-adv-x="1000" />

<glyph glyph-name="thinchevron-left-no" unicode="&#xe816;" d="M568 552l-199-202 199-201 19 19-180 182 180 182-19 20z" horiz-adv-x="1000" />

<glyph glyph-name="thinchevron-right-circle" unicode="&#xe817;" d="M500 171c-130 0-235 105-235 235 0 130 105 236 235 236s235-106 235-236c0-130-105-235-235-235z m0 458c-123 0-223-100-223-223s100-222 223-222c123 0 223 99 223 222s-100 223-223 223z m63-223l-95 95-9-9 85-86-85-86 9-9 95 95z" horiz-adv-x="1000" />

<glyph glyph-name="thinchevron-right-no" unicode="&#xe818;" d="M388 149l199 201-199 202-19-20 180-182-180-182 19-19z" horiz-adv-x="1000" />
</font>
</defs>
</svg>
